#TITLE:AKB48;
#SUBTITLE:Dead Master;
#ARTIST:AKB48;
#TITLETRANSLIT:;
#SUBTITLETRANSLIT:;
#ARTISTTRANSLIT:;
#CREDIT:;
#BANNER:bn.png;
#BACKGROUND:bg.png;
#LYRICSPATH:;
#CDTITLE:;
#MUSIC:AKB48-video clip.mp3;
#OFFSET:-0.708;
#SAMPLESTART:43.375;
#SAMPLELENGTH:12.000;
#SELECTABLE:YES;
#BPMS:0.000=140.625;
#STOPS:;
#BGCHANGES:0.000=AKB48-video clip.avi=1.000=1=1=0,
99999=-nosongbg-=1.000=0=0=0 // don't automatically add -songbackground-
;
// cache tags:
#FIRSTBEAT:0.500;
#LASTBEAT:569.500;
#SONGFILENAME:Songs/s/AKB48-video clip/AKB48-video clip.sm;
#HASMUSIC:1;
#HASBANNER:1;
#MUSICLENGTH:248.532;
// end cache tags

//---------------dance-single - ----------------
#NOTES:
     dance-single:
     :
     Medium:
     1:
     0.707,0.831,0.805,0.431,0.931,923.000,200.000,107.000,0.000,0.000:
0000
0000
2000
0000
0000
0000
3020
0000
0000
0000
0000
0030
0100
0000
0000
0010
,
0000
0000
0100
0000
0001
0000
0001
0001
0000
0000
0000
0000
0020
0000
0000
0000
,
0000
0030
0000
0001
0100
0110
0000
1001
0000
0110
0000
0000
0101
0000
0000
0000
,
1010
0000
0000
0101
0000
0101
0000
0000
1010
0000
0000
0101
0000
0000
1010
0000
,
0000
0101
0000
0101
0000
1010
1010
0000
1010
0000
0101
0101
0000
1010
0000
0000
,
0000
0000
0002
0000
0000
0000
0003
0000
0010
0110
0100
0010
0000
0000
1010
0000
,
1010
0000
0000
0101
0000
0000
0000
0110
1010
0000
0000
0000
0101
0000
0000
1010
,
0000
0000
0101
0000
0000
0001
0000
0001
0010
0000
0010
0010
0000
0000
0100
0010
,
0010
0000
2000
0000
0000
0000
0000
3000
0010
0000
0010
0000
0100
0000
0010
0010
,
0000
0010
0000
1000
0001
0000
0001
0000
0100
0010
0000
0010
0000
0000
1000
0100
,
0000
0010
0000
0010
0000
0100
0000
0001
0000
0000
0010
0010
0000
0000
0100
0010
,
0000
0010
0000
0010
0000
0000
2000
0000
0000
0000
0000
3010
0000
0010
0100
0000
,
0001
0000
0001
0100
0000
0010
0000
0010
0010
1000
0000
0100
0000
0010
0010
0000
,
0100
0001
0001
0000
1000
0000
0110
0000
0010
0100
0001
0000
0001
0000
1000
0010
,
0000
0010
0000
0000
0100
0001
0001
1000
0000
0100
0020
0000
0000
0000
0000
0000
,
0000
0000
0030
0100
0100
0001
0000
0002
0000
0000
0000
0000
0003
0010
0010
0000
,
0100
0000
0000
0010
0000
0010
0010
0000
1000
0000
0001
0001
0100
0000
0010
0020
,
0000
0000
0030
0000
0100
0100
0000
0001
0001
0000
0010
0000
0000
0001
0000
0010
,
0000
0001
0000
0000
0001
0000
0000
0110
0100
0000
1000
0000
0000
0100
0010
0010
,
0000
0000
0100
0001
0001
0000
0000
1010
0000
0001
0000
0101
0000
1010
0000
0000
,
0000
0101
0000
0101
0000
1010
0000
0000
0000
0110
0000
0000
0001
0001
0010
0000
,
0100
1000
0100
0000
0010
0000
0010
0000
0200
0000
0000
0310
0000
0010
0010
0000
,
1000
0100
0000
0010
0010
0000
0100
0000
0001
0001
0000
0020
0000
0000
0000
0000
,
0000
0030
0000
0100
1000
0110
0000
0010
0000
0200
0000
0000
0020
0300
0000
0000
,
0000
1030
0000
1000
0010
0010
0000
0100
0000
0001
0001
0000
0100
0000
0000
0010
,
0010
0000
1000
0001
0000
0001
0000
0100
0010
0000
0000
1000
0001
0001
0000
0120
,
0000
0000
0000
0000
0000
0000
0000
0000
0100
0000
1030
0000
0100
0020
0000
0000
,
0000
0030
0100
0010
0000
0010
0000
0000
0002
0000
0000
0000
0000
0000
0003
0010
,
0010
0000
0100
1000
0200
0000
0000
0000
0000
0000
0000
0310
0000
0010
0010
0000
,
1000
0000
0100
0020
0000
0000
0000
0000
0000
0000
0000
0000
0130
0000
0100
0000
,
2000
0000
0000
0000
0000
0000
3000
0010
0000
0010
0000
0100
0002
0000
0000
0000
,
0000
0000
0000
0003
0000
0000
0010
0010
0100
0000
0020
0000
0000
0030
0000
1010
,
0000
0000
0000
0101
0000
0000
0010
0000
0000
0010
0000
0000
0000
0101
0000
1010
,
0000
0000
0010
0000
0000
0000
0000
0001
0000
0000
0010
0000
0000
0100
0000
0010
,
0000
0000
0000
0001
0001
0000
0001
0000
0001
0000
0001
0001
0000
0010
0100
0001
,
1000
0010
0100
0000
1001
0000
0110
0000
0101
0000
1001
0000
0110
0000
0101
0000
,
0000
1010
0000
0101
0010
0000
0101
0000
0000
0101
0000
0000
0000
1010
0000
0000
,
0101
0000
0000
0000
1010
0000
0001
0110
0000
0101
0000
0000
0101
0101
0000
0000
,
1010
0000
0000
0001
0100
0101
0000
0000
1010
0000
0000
0101
0000
0101
0000
0000
,
0110
0000
0001
0000
0000
0101
0101
0000
0101
0000
1010
0000
0000
0000
0101
0000
,
0000
1010
0000
0000
0110
0000
0000
0110
0000
0000
1010
0010
0000
0000
0000
0110
,
0110
0000
0000
0101
0000
0000
0000
1010
1010
0000
0000
0000
0101
0100
0001
0000
,
1010
1001
0000
0000
0110
0000
0110
0000
0000
0101
0000
0101
0000
1010
0000
0101
,
0000
0000
0110
0000
0000
1001
0000
0000
0110
0000
0000
1001
0000
0000
0110
0000
,
0110
0000
0000
0010
0000
0000
0010
0000
0002
0000
0000
0000
0023
0000
0000
0130
,
0000
0000
2000
0000
0000
3200
0000
0000
0300
0020
0000
0000
0130
0000
0000
0020
,
0000
0000
1030
0000
0000
0010
0000
0000
0100
0000
0000
0002
0000
0000
0003
0010
,
0000
0000
0101
0101
0000
0000
0000
0010
0010
0000
0000
0000
0100
0010
0000
0010
,
0010
0000
0000
0010
0000
0010
0000
0000
0000
0000
0010
0010
0000
0000
0000
0010
,
0000
0000
0100
0000
0000
0000
0020
0000
0000
0000
0000
0000
0000
0000
0030
1000
,
0000
1000
0000
0010
0010
0000
0100
0000
0010
0000
0010
0000
0100
0000
0001
0001
,
0000
0000
0010
0000
0000
0000
0100
0000
0000
0010
0000
0000
0000
0001
1000
0000
,
0010
0000
0100
0010
0000
0100
0001
0000
0010
0000
0000
0000
0200
0000
0000
0000
,
0000
0300
0010
0010
0000
1000
0010
0000
0100
0000
0000
0001
0000
0000
0000
0010
,
0000
0000
0100
0010
0010
0000
0000
1000
0000
0000
0010
0000
0000
0100
0000
0001
,
0000
0100
0000
0010
1000
0010
0000
0000
0100
0000
0001
0000
0001
0020
0000
0000
,
0000
0000
0030
0100
0000
0100
0000
0010
0000
0000
2000
0000
0000
0000
3000
0010
,
0000
0010
0000
0000
0100
0010
0000
0010
2000
0000
0000
0000
0000
3010
0000
0010
,
0100
0000
0000
0002
0000
0000
0000
0003
0010
0010
0000
0100
0010
0000
0000
1000
,
0000
0020
0000
0000
0000
0030
0100
0000
0100
0010
0000
0010
1000
0000
0200
0000
,
0000
0000
0310
0010
0000
0010
0000
0100
0000
0000
0000
0002
0000
0000
0013
0000
,
0000
1000
0000
0100
0000
0000
0020
0000
0000
0000
0000
0030
0100
0000
0100
0000
,
0010
0000
0000
0010
0000
2000
0000
0000
0000
0000
0000
0000
0000
3010
0000
0010
,
0000
0200
0000
0000
0000
0000
0300
0002
0000
0000
0000
0013
0000
0000
0100
0000
,
0000
0000
1000
0000
0010
0000
0010
0100
0000
0001
0000
0020
0000
0000
0000
0030
,
0000
0100
0100
0000
0010
0000
0000
0000
1001
0000
0000
0020
0000
0000
0030
0100
,
0000
0000
0010
0000
0000
0001
0000
0000
0010
0010
0000
0100
0000
0001
0000
1000
,
0010
0000
0010
0100
0000
0001
0001
0000
0001
0000
0010
0000
0010
0000
0000
0000
,
0100
0010
0000
0010
0000
0000
1000
0010
0000
0010
0100
0000
0010
0000
0001
0000
,
0001
0000
0020
0000
0000
0030
0100
0000
0100
0000
0010
0010
0000
1000
0000
0100
,
0010
0000
0000
0100
0000
0002
0000
0000
0000
0000
0000
0000
0000
0003
0010
0000
,
0010
0100
0000
1000
0000
0020
0000
0000
0000
0130
0000
0000
0010
0010
0000
0000
,
0001
0010
0000
2000
0100
3000
0020
0000
0000
0000
0030
0100
0000
0010
0000
0001
,
0010
0000
0100
1000
0100
0000
0010
0010
0000
0000
0200
0000
0000
0000
0000
0000
,
0000
0000
0310
0000
0001
0000
0001
0000
0020
0000
0000
0000
0030
0100
0010
0000
,
0010
1000
0000
0200
0000
0000
0000
0000
0310
0000
0010
0000
0010
1000
0000
0200
,
0000
0000
0000
0000
0300
0010
0000
0010
0010
0000
1000
0000
0100
0020
0000
0000
,
0000
0000
0130
0100
0000
0000
0001
0001
0000
0000
0020
0000
0000
0000
0030
0000
,
0100
0100
0000
0000
0010
0010
0000
0000
0100
0000
0000
0010
0000
0010
1000
0000
,
0000
0100
0010
0020
0000
0000
0000
0030
0100
0000
0100
0010
0000
0000
0002
0000
,
0000
0013
0000
0000
0100
0000
0000
1000
0000
0100
0000
0010
0000
0010
0200
0000
,
0000
0001
0000
0000
0000
0001
0000
0000
0001
0000
0000
0001
0000
0300
0010
0010
,
0000
0010
0000
0010
0000
0010
0010
0000
0000
1001
0000
0110
0000
0101
0000
0010
,
0000
1001
0000
0110
0101
0000
0000
1010
0000
0001
0100
0000
0110
0000
1001
0000
,
0110
0000
0101
0000
0000
0101
0000
0000
1010
0000
0000
0000
0101
0000
1010
0000
,
0000
0001
0100
0101
0000
0000
1010
1010
0000
0000
0101
0000
0000
0000
1010
0010
,
1000
0000
0000
0101
0101
0000
0110
0000
1001
0000
0000
0110
0000
0101
0000
0000
,
1010
0000
1001
0000
0101
0000
0101
0000
0000
0110
0000
0000
1001
0000
0000
0110
,
0000
0000
1001
0000
0001
0100
0001
0101
0000
0000
0010
0100
0110
0000
0000
1001
,
0000
0000
0110
0000
0110
0000
1001
0000
1001
0000
0110
0100
0001
0000
0000
0101
,
0101
0000
0000
1010
0000
1010
0000
0101
0000
0101
0000
0000
0020
0000
0000
0030
,
1000
0000
0010
0010
0000
0000
0100
0010
0000
0001
0000
0010
0000
0000
0000
0100
,
0000
0000
0020
0000
0000
0000
2000
0000
0030
3000
0200
0000
0020
0300
0000
0000
,
0230
0000
0000
0302
0000
0000
0020
0003
0000
0000
2030
0000
0000
3100
0000
0000
,
0010
0000
0000
0001
0000
0000
0010
0000
0000
0000
0100
0000
0010
0010
0000
0000
,
0000
1000
0010
0000
0010
0000
0100
0001
0000
0000
0010
0000
0010
0000
0000
0000
,
0100
0000
0000
0010
0000
0010
0000
1000
0000
0010
0000
0010
0100
0000
0000
0000
,
0002
0000
0000
0000
0013
0000
0100
0000
0000
0010
0010
1000
0000
0100
0010
0000
,
0010
0000
0200
0000
0000
0000
0300
0010
0000
0010
0000
1000
0000
0001
0000
0000
,
0000
0100
0000
0000
0010
0000
0000
0001
0000
0000
0100
0010
0010
0000
0000
1000
,
0000
0010
0000
0010
0100
0000
0000
0010
0000
0000
0100
0000
0001
0001
0000
1000
,
0010
0000
0010
0100
0000
0001
0002
0000
0000
0003
0000
0000
0000
0020
0000
0000
,
0000
0000
0000
0130
0000
0200
0000
0000
0000
0000
0300
0020
0000
0000
0000
0030
,
1000
0000
1000
0000
0000
0000
0010
0010
0000
0000
0001
0000
0000
0000
0010
0000
,
0000
0000
0100
0000
0010
0000
0000
0000
0000
1000
0000
0001
0000
0000
0100
0000
,
0000
1001
0000
1001
0000
0000
0110
0000
0110
0000
0000
0101
0000
0101
0000
0000
,
1010
1010
0000
0000
0000
0101
0000
0000
0101
0000
0000
0020
0000
0000
0000
0000
,
0000
0000
2030
0000
,
0000
0000
0000
3020
0000
0000
0000
0200
0030
0000
0000
0000
0002
0300
0000
0000
,
0000
0000
0000
0013
0010
1000
0000
0000
0200
0000
0000
0000
0000
0000
0000
0320
,
0000
0000
0000
0000
0000
0000
0000
0000
0200
0030
0000
0000
0000
0302
0000
0000
,
0000
2003
0000
0000
0000
0000
3010
0000
0010
0000
0200
0000
0000
0302
0000
0000
,
0023
0000
0000
0000
0100
0030
0000
1000
0000
0000
0100
0000
0010
0000
0010
0000
,
0010
0000
0010
0000
0001
0000
0000
0010
0000
0100
0000
0010
0010
1000
0000
0001
,
0000
0100
0000
0010
0010
0000
0000
0100
0000
0001
0000
0001
1000
0010
0000
0000
,
0100
0000
0000
0001
0000
0000
0100
0000
0000
0010
0010
0000
1000
0100
0020
0000
,
0000
0000
0000
0000
0000
0030
0000
0101
0000
0000
0010
0110
0000
0000
0001
0100
,
0000
0010
1000
0010
1000
0000
0000
0101
0101
0000
0000
0010
0000
0010
0000
0000
,
0101
0000
0000
0000
1010
0000
0000
0101
0000
0000
0110
0000
0000
0101
0000
0000
,
0010
1000
0010
0000
0100
0001
0101
0000
0000
0000
0101
0000
0000
0000
0101
0101
,
0000
0000
1010
0000
1010
0000
0110
0000
0101
0000
0000
0101
0101
0000
0000
0010
,
0000
1010
0000
0000
0101
0000
0000
0000
0101
0000
0000
1010
0000
0000
0110
0000
,
0000
0101
0000
0000
0010
0000
0010
0000
1000
0000
0100
0000
0000
0020
0000
0000
,
0000
0000
0230
0000
0000
0302
0000
0000
0000
0000
0000
1003
0000
0000
0200
0000
,
0000
0020
0300
0000
0000
0230
0000
0000
0302
0000
0000
0023
0000
0000
0000
0130
,
0000
0000
0001
0000
0000
0020
0000
0000
0130
0000
0000
0001
0001
0000
1000
0010
,
0000
0000
0101
0000
0000
0010
0000
0000
0000
0000
0001
0000
0010
0000
0000
1000
,
0100
0000
0010
0010
0000
0100
0000
0002
0000
0000
0000
0000
0000
0000
0000
0003
,
0010
0010
0000
0000
1000
0100
0000
0010
0010
0000
0100
0010
0000
0010
0100
0000
,
0002
0000
0000
0000
0000
0003
0010
0000
0010
0100
0000
1000
0000
0110
0000
0010
,
0100
0000
0010
0000
0100
0002
0000
0010
0003
1000
0000
0200
0000
0000
0000
0000
,
0000
0310
0000
0010
0010
0000
0100
0000
0110
0010
0000
0002
0000
0010
0003
1000
,
0100
0010
0000
0010
0000
0200
0000
0000
0000
0300
0010
0010
0000
0010
0000
0100
,
0000
0010
0000
0002
0000
0010
1003
0000
0100
0010
0010
0000
0100
0000
0002
0000
,
0000
0000
0000
0000
0013
0000
0010
0100
0000
1000
0100
0010
0010
0000
0001
0000
,
0010
0000
0000
1000
1000
0000
0100
0000
0200
0000
0000
0000
0000
0000
0020
0000
,
0000
0000
0000
0000
0000
0000
0000
0000
0000
0000
0300
2000
0000
0000
0000
0000
,
0000
0000
0000
0000
3000
0030
0000
0101
0000
0000
0000
0000
1010
0000
0000
0000
,
0000
0101
0000
0000
0000
0110
0000
0000
0000
1001
0000
0000
0000
0110
0000
0000
,
0000
0101
0000
0000
1010
0000
0000
0101
0000
0000
1010
0000
0000
0000
0101
0000
,
0000
0101
0101
0000
0000
0010
0000
1010
0000
0000
0101
0000
0000
0110
0000
0000
,
1001
0000
0000
0010
0010
0100
0000
0001
0001
1000
0000
0100
0000
0020
0000
0000
,
0000
0000
0000
0030
0000
0000
0000
0000
;

//---------------dance-single - ----------------
#NOTES:
     dance-single:
     :
     Easy:
     1:
     0.000,0.000,0.000,0.000,0.000,0.000,0.000,0.000,0.000,0.000:
0000
0000
0000
0000
;
